#TITLE:Ievan Polkka;
#SUBTITLE:;
#ARTIST:Hatsune Miku;
#TITLETRANSLIT:;
#SUBTITLETRANSLIT:;
#ARTISTTRANSLIT:;
#CREDIT:;
#BANNER:Hatsune Miku - Ievan Polkka-banner.jpg;
#BACKGROUND:Hatsune Miku - Ievan Polkka-bg.jpg;
#LYRICSPATH:Hatsune Miku - Ievan Polkka.lrc;
#CDTITLE:CDTitle.png;
#MUSIC:Hatsune Miku - Ievan Polkka.ogg;
#OFFSET:-0.760;
#SAMPLESTART:17.760;
#SAMPLELENGTH:12.000;
#SELECTABLE:YES;
#BPMS:0.000=119.000;
#STOPS:;
#BGCHANGES:217.000=Hatsune Miku - Ievan Polkka-bg.jpg=1.000=0=0=1,
99999=-nosongbg-=1.000=0=0=0 // don't automatically add -songbackground-
;
// cache tags:
#FIRSTBEAT:2.000;
#LASTBEAT:217.500;
#SONGFILENAME:songs/Vocaloid Party/Hatsune Miku - Ievan Polkka/Hatsune Miku - Ievan Polkka.sm;
#HASMUSIC:1;
#HASBANNER:1;
#MUSICLENGTH:110.842;
// end cache tags

//---------------dance-single - ----------------
#NOTES:
     dance-single:
     :
     Challenge:
     9:
     0.757,0.711,0.099,0.298,0.704,543.000,11.000,33.000,16.000,0.000:
0000
0000
0000
0000
1000
0010
1000
0100
,
1000
0010
1000
0001
0100
0010
0100
0001
,
0100
0010
0100
0001
0010
0100
0010
0001
,
0010
0100
0010
0001
1000
0100
1000
0010
,
1000
0001
1000
0100
1001
1000
0001
0100
,
0001
0010
0001
0100
1010
1000
0010
0100
,
0010
0000
1000
0000
0010
0000
0100
0010
0100
0000
0001
0000
0100
0000
0010
0000
,
0100
0001
0100
0010
0101
1000
0100
0010
,
0110
0000
0000
0000
MMMM
0000
0000
1000
0010
0000
1000
0000
0010
0000
0000
0100
,
0001
0010
0001
0010
0001
0000
1000
0010
0100
0000
0001
0000
0100
0000
0001
0000
,
1000
0000
0010
0000
1000
0000
0001
0010
0100
0000
0010
0000
0001
0000
0000
1000
,
0001
0000
1000
0001
0000
0100
0001
0100
0010
1000
0010
1000
0010
1000
0010
0000
,
0100
0000
0001
0000
1000
0000
0001
0100
0001
0000
0100
0000
0010
0000
1000
0000
,
0010
0000
0100
0001
0000
0010
0001
0010
0100
1000
0100
1000
0100
1000
0100
1000
,
0100
0000
0010
0100
0000
0000
0000
1000
0010
0000
0100
0000
0010
0000
1000
0000
,
0001
0000
0100
0000
0010
0000
1000
0010
1000
0001
1000
0001
1000
0000
0001
0000
,
0110
0000
0100
0010
0000
MMMM
0000
0001
0100
0000
0001
0000
0200
0000
0000
0310
,
0100
0010
1000
0000
0020
0000
0130
0010
1000
0000
0100
0000
0010
0000
0100
0000
,
1000
0010
0100
0000
0020
0000
0000
1030
0100
0000
1000
0000
0200
0000
0000
0310
,
0100
0000
0010
0200
0000
1300
0010
1000
0010
0100
0010
0100
0010
0000
0100
0000
,
0001
0000
1000
0010
2000
0000
3001
0010
0100
0000
0010
0000
0001
0000
0100
0000
,
0020
0000
0130
0010
2000
0000
3001
0010
0001
1000
0001
1000
0001
1000
0001
1000
,
0002
0000
1003
0001
0020
0000
0030
0100
1000
0000
0001
0000
0100
0000
0001
0000
,
1000
0000
0001
0010
0200
0000
1300
0010
0100
0001
0100
0001
0100
0001
0100
0001
,
0020
0000
0031
1000
0010
0000
0000
0100
0010
0000
0100
0000
0020
0000
0000
1030
,
0001
0100
0020
0000
1030
0000
0001
0100
0010
0000
1000
0000
0001
0000
0100
0000
,
0010
0100
0001
0000
0020
0000
0030
0001
1000
0000
0001
0000
2000
0000
0000
3001
,
0100
0000
0001
0200
0000
0310
0100
0010
0100
0001
0100
0001
0100
0001
0100
0001
,
0200
0000
0310
1000
0020
0000
1030
0010
0100
0000
0010
0000
1000
0000
0100
0000
,
0020
0000
0130
1000
0002
0000
1003
0010
0100
0010
0100
0010
0100
0010
0100
0010
,
2000
0000
3001
0100
0002
0000
0003
1000
0010
0000
1000
0000
0010
0000
1000
0000
,
0100
0000
1000
0100
0020
0000
0031
0100
0001
1000
0001
1000
0001
0000
1000
0000
,
1001
0000
0000
0000
MMMM
0000
0000
0100
0001
0000
0001
0000
0001
0000
0000
0001
,
1000
0100
0010
0001
0100
0000
0010
1000
0010
0000
0100
0000
0001
0000
0010
0000
,
0100
0000
0010
0000
0100
0000
1000
0010
0100
0000
0001
0000
0100
0000
0000
0001
,
0010
0000
0001
1000
0000
0001
1000
0001
0100
0010
0100
0001
0010
0100
0010
0000
,
0100
0000
1000
0000
0001
0000
0100
0001
0010
0000
0100
0000
1000
0000
0010
0000
,
0100
0000
0001
0010
0000
0001
1000
0010
0100
0000
0010
0000
0100
0000
0001
0000
,
1000
0000
0001
1000
0000
0100
0010
0001
1000
0000
0100
0000
0010
0000
0100
0000
,
1000
0100
0010
0001
0101
0100
0110
0010
,
1010
0000
1010
0000
1000
0010
1000
0010
1000
0000
0100
0000
0010
0000
0000
0001
,
0100
0010
1000
0001
0100
0000
0010
1000
0010
0000
0100
0000
0001
0000
0100
0000
,
0010
0000
1000
0000
0010
0000
0100
0001
0010
0000
0100
0000
1000
0000
0000
0010
,
1000
0000
0100
0010
0000
0001
0100
0010
1000
0100
0010
0001
1000
0010
0100
0000
,
0010
0000
0100
0000
0001
0000
0100
0010
1000
0000
0001
0000
0100
0000
0010
0000
,
1000
0000
0010
0100
0000
0010
1000
0001
0100
0010
1000
0001
0100
0010
1000
0001
,
0100
0000
0010
1000
0000
0000
0000
0100
0010
0000
0001
0000
0001
0000
0100
0000
,
0010
0000
1000
0000
0001
0000
1000
0001
0100
0010
1000
0001
0100
0000
0010
0000
,
1010
0000
0010
1000
0000
MMMM
0000
0100
0010
0000
1000
0000
0002
0000
0000
0103
,
0010
0100
0001
0000
0200
0000
0310
1000
0010
0000
0100
0000
0001
0000
0100
0000
,
0010
0100
0001
0000
2000
0000
3000
0100
0010
0000
0001
0000
0200
0000
0000
0310
,
1000
0000
0100
0020
0000
0031
0100
0001
0010
0001
0100
0010
1000
0000
0010
0000
,
0100
0000
0001
0100
0020
0000
1030
0010
0100
0000
0010
0000
1000
0000
0001
0000
,
0100
0000
0010
0100
0002
0000
1003
0010
0100
0001
0100
0010
0100
0001
0010
0001
,
2000
0000
3001
0010
0200
0000
0300
0000
0000
0000
0000
0000
0000
0000
0000
0000
;

//---------------dance-single - ----------------
#NOTES:
     dance-single:
     :
     Beginner:
     1:
     0.076,0.097,0.000,0.036,0.000,55.000,0.000,4.000,0.000,0.000:
0000
0000
0000
0000
,
0000
0000
0000
0000
,
0000
0000
0000
0000
,
0000
0000
0000
0000
,
0000
0000
1000
0000
,
0000
0000
0010
0000
,
0000
0000
1000
0000
,
0000
0000
0001
0000
,
0002
0000
1003
0000
,
0000
0000
0010
0000
,
0000
0000
0100
0000
,
0000
0000
0001
0000
,
0000
0000
1000
0000
,
0000
0000
0001
0000
,
0000
0000
0100
0000
,
0000
0000
0001
0000
,
2000
0000
3010
0000
,
0000
0000
1000
0000
,
0000
0000
0001
0000
,
0000
0000
0100
0000
,
0000
0000
0001
0000
,
0000
0000
0010
0000
,
0000
0000
0100
0000
,
0000
0000
1000
0000
,
1000
0000
0010
0000
,
0000
0000
0100
0000
,
0000
0000
0010
0000
,
0000
0000
1000
0000
,
0000
0000
0001
0000
,
0000
0000
0100
0000
,
0000
0000
0010
0000
,
0000
0000
0100
0000
,
0020
0000
1030
0000
,
0000
0000
0100
0000
,
0000
0000
0010
0000
,
0000
0000
0001
0000
,
0000
0000
0100
0000
,
0000
0000
0010
0000
,
0000
0000
1000
0000
,
0000
0000
0000
0000
,
0000
0000
0010
0000
,
0000
0000
1000
0000
,
0000
0000
0010
0000
,
0000
0000
1000
0000
,
0000
0000
0001
0000
,
0000
0000
0100
0000
,
0000
0000
0001
0000
,
0000
0000
0010
0000
,
0002
0000
1003
0000
,
0000
0000
0001
0000
,
0000
0000
0100
0000
,
0000
0000
0010
0000
,
0000
0000
1000
0000
,
0000
0000
0001
0000
,
1000
0000
0000
0000
;

//---------------dance-single - ----------------
#NOTES:
     dance-single:
     :
     Hard:
     7:
     0.481,0.416,0.117,0.009,0.135,359.000,13.000,1.000,0.000,0.000:
0000
0000
1000
0100
,
1000
0000
0001
1000
0001
0000
0100
0000
,
0010
0000
1000
0010
0100
0000
0001
0000
,
0010
0000
0001
0100
0010
0000
1000
0000
,
0010
0000
0100
0001
1000
0000
1010
0000
,
0101
0000
1000
0100
0010
0000
0011
0000
,
0110
0000
1000
0001
1000
0000
0011
0000
,
1010
0000
0100
0001
0010
0000
0001
0010
,
0002
0000
0003
0000
1000
0010
1000
0000
,
0001
0100
0001
0000
1000
0100
0010
0001
,
0001
1000
0010
0000
1000
0001
0100
0000
,
0010
0000
0100
0010
0000
0100
0010
0000
1000
0000
0001
0000
0100
0000
0010
0000
,
1000
1000
1000
0000
0010
1000
0010
0000
,
1000
0000
0010
0100
0000
0100
0001
0000
1000
0000
0100
0000
0010
0000
0100
0000
,
0010
0000
0011
0000
0010
0001
1000
0100
,
0010
0010
0001
0000
1000
0010
0100
0000
,
0001
0000
0001
1000
0000
0000
0000
0000
0010
0000
1000
0000
0010
0000
0000
0000
,
0100
0001
0010
0000
0001
1000
0100
0010
,
0100
1000
0100
0000
0010
0000
0000
0000
0100
0000
1000
0000
0001
0000
0000
0000
,
1000
0000
0010
0100
0000
0010
1000
0000
0010
0000
0100
0000
0010
0000
1000
0000
,
0001
0000
0100
0010
0100
0000
0000
0000
1100
0000
0000
0000
0101
0000
0000
0000
,
0100
0000
0010
0100
0001
0000
0000
0000
1000
0000
0010
0000
0100
0000
0010
0000
,
1000
0000
0010
0100
0010
0000
0000
0000
1001
0000
0000
0000
1010
0000
0000
0000
,
0100
0000
0010
1000
0100
0000
0000
0000
0010
0000
0001
0000
0100
0000
0010
0000
,
1000
0001
0101
0000
0010
1000
0010
0000
,
0100
0001
1000
0000
0100
0010
0001
1000
,
0100
0010
0100
0000
1000
0000
0010
0000
,
1000
0000
0001
0100
0000
0010
1000
0000
0001
0000
0100
0000
0010
0000
1000
0000
,
0001
0100
0010
0000
0001
1000
0010
0000
,
0100
0001
1000
0000
0010
1000
0001
0100
,
0010
1000
0001
0000
1000
0001
0100
0000
,
0010
1000
0010
0000
0100
0001
1000
0010
,
0100
0000
0000
0000
1000
0010
0100
0000
,
0001
1000
0010
0000
0100
0001
1000
0010
,
0100
0010
1000
0000
0001
0100
0010
0000
,
1000
0000
0100
0010
0000
0001
0100
0000
0010
0000
1000
0000
0100
0000
0010
0000
,
0100
0100
0100
0000
1000
0100
0010
0000
,
0001
0000
1000
0100
0000
0100
1000
0000
0010
0000
1000
0000
0010
0000
0000
0000
,
0010
0000
1000
0100
0000
0100
0010
0000
0001
0000
1000
0000
0100
0000
0000
0000
,
1000
0001
0100
0000
0010
1000
0100
0010
,
0001
0000
0001
0000
1000
0001
1000
0000
0010
0000
0100
0000
0010
0000
0000
0000
,
1000
0001
0100
0000
0010
1000
0001
0100
,
0010
1000
0001
0000
1000
0001
0100
0000
,
0001
0000
1000
0001
0000
1000
0001
0000
1000
0000
0010
0000
0100
0000
0010
0000
,
1000
0100
0010
0000
0001
0010
0100
0000
,
1000
0000
0100
0010
0000
0010
0001
0000
1000
0000
0010
0000
0100
0000
0001
0000
,
1000
0000
1001
0000
1000
0010
0100
0010
,
1000
0100
1000
0000
0001
0010
0100
0000
,
1000
0000
1000
0001
0000
0000
0000
0000
1000
0000
0010
0000
0100
0000
0000
0000
,
0010
1000
0010
0000
0100
0001
1000
0010
,
0100
0001
0010
0000
0001
0000
0000
0000
0100
0000
0001
0000
0010
0000
0000
0000
,
0001
0000
0100
0010
0000
1000
0001
0000
0100
0000
0010
0000
1000
0000
0100
0000
,
0010
0000
0010
0001
0010
0000
0000
0000
0001
0000
1000
0000
0100
0000
0000
0000
,
1000
0001
0010
0000
0100
1000
0001
0010
,
0100
0010
0010
0000
0000
0000
0000
0000
;

//---------------dance-single - ----------------
#NOTES:
     dance-single:
     :
     Medium:
     5:
     0.388,0.343,0.099,0.090,0.000,280.000,11.000,10.000,0.000,0.000:

0000
0000
0000
0000
0002
1000
0000
0010
,
0000
1000
0000
0010
0203
1000
0000
0010
,
0000
1000
0000
0010
0302
0100
0000
0010
,
0000
0100
0000
0010
0203
0001
0000
1000
,
0000
0001
0000
1000
0301
0000
0100
0000
,
0010
0000
1000
1000
0010
0000
0100
0000
,
0001
0000
0010
0010
0001
0000
0100
0000
,
0010
0000
0100
0100
0001
0000
1100
0000
,
1001
0000
1000
0001
,
0100
0001
0010
0000
0100
0000
1000
0000
,
0010
0100
0010
0000
1000
0010
0100
0000
,
0001
0100
0000
0010
1000
0000
0100
0000
,
1000
1000
0010
0000
0100
0000
0001
0000
,
1000
0010
1000
0000
0100
0000
0010
0000
,
0001
0010
0001
0000
0100
0000
0010
0000
,
1000
0010
0100
0000
0010
1000
0010
0100
,
0010
0000
1000
0001
,
0100
0010
1000
0000
0001
0000
0100
0000
,
0001
1000
0001
0000
0010
0000
0100
0000
,
1000
0100
1000
0000
0010
0100
0010
1000
,
0100
1000
0010
0110
,
0100
1010
0001
0110
,
0010
1001
0001
0110
,
0010
0101
1000
0110
,
0010
1000
0020
0130
0001
0000
1000
0000
,
0010
0100
0001
0000
1000
0000
0001
0000
,
0100
0010
1000
0000
0100
0010
0001
0000
,
0100
0001
1000
0000
0010
1000
0010
0100
,
0020
0000
0130
0000
0001
1000
0010
0000
,
1000
0010
0100
0000
0010
1000
0001
0100
,
0020
0000
1030
0000
0010
1000
0100
0000
,
1000
0010
0100
0000
0001
0100
0010
1000
,
0100
0000
0010
0001
,
1000
0001
0100
0000
0010
0000
1000
0000
,
0001
0100
0010
0000
1000
0010
0100
0000
,
0001
0100
0000
0001
1000
0000
0010
0000
,
0100
0001
0010
0000
0100
0000
1000
0000
,
0001
0010
0200
1000
1300
0000
0010
0000
,
0100
0001
0200
0001
0301
0000
1000
0000
,
0010
0100
0010
0100
,
0010
0100
0010
0100
0010
0000
1000
0000
,
0010
1000
0100
0000
0010
0000
0100
0000
,
1000
0001
0010
0000
0100
0000
1000
0000
,
0001
0010
0000
0001
0100
0000
0010
0000
,
0100
0001
0010
0000
0100
0000
1000
0000
,
0010
0100
0010
0000
1000
0100
1000
0001
,
0010
1001
1000
0010
,
1000
0001
0100
0000
0010
1000
0001
0100
,
0010
0000
1000
0001
,
0100
0010
1000
0000
0001
0100
0010
1000
,
0010
1010
1000
0001
,
1000
0010
0000
0100
0001
0000
1000
0010
,
0100
0010
1000
0000
0010
0000
1000
0000
,
0001
0100
0010
0000
1000
0001
0100
0010
,
2000
3001
0000
0000
;

//---------------dance-single - ----------------
#NOTES:
     dance-single:
     :
     Easy:
     2:
     0.189,0.245,0.036,0.063,0.000,136.000,4.000,7.000,0.000,0.000:
0000
0000
0000
0000
,
0000
0000
0000
0000
,
0000
0000
0000
0000
,
0000
0000
0000
0000
,
0000
0000
1002
0000
,
0200
0303
0201
0000
,
0020
0330
1020
0000
,
0200
0330
0001
1000
,
0001
0000
0100
0000
,
0010
1000
0010
0000
,
0100
0001
0100
0000
,
0010
0000
0100
0100
,
0100
0000
0010
0000
,
1000
0000
0001
0001
,
0001
0000
0100
0000
,
0010
0000
1000
0001
,
1000
0000
0001
0000
,
0100
0000
0001
0010
,
0001
0000
0100
0000
,
0010
0000
1000
0010
,
1000
0000
0100
0000
,
1000
0000
0010
0010
,
0010
1000
0010
0000
,
0100
0000
0001
0001
,
0001
0100
0001
0000
,
1000
0000
0010
0100
,
0010
0000
0100
0000
,
0001
0000
1000
0100
,
1000
0000
0001
0000
,
0010
0001
0010
0000
,
0001
0000
1000
0010
,
1000
0000
0001
0100
,
0001
0000
0010
0000
,
0100
0100
0100
0000
,
1000
1000
1000
0000
,
0010
0000
0100
0001
,
0100
0000
0001
0000
,
1000
0010
1000
0000
,
0001
0100
0001
0000
,
1000
0000
0001
0001
,
0001
0002
1003
0000
,
0010
0100
0010
0000
,
1000
0001
1000
0000
,
0100
0000
0010
0001
,
0010
0000
0001
1000
,
0001
0000
0100
0100
,
0100
0000
0010
1000
,
0010
0000
1000
1000
,
1010
0000
0010
0000
,
0100
0000
0001
1000
,
0001
0000
0100
0000
,
0010
0000
1000
1000
,
1000
0000
0001
0001
,
0001
0000
0100
0010
,
0100
0010
0000
0000
;
